10bit Hevc

The video is in a (. Is there a simple sample on how to use it?. Most Discussed. To this end, 10-bit displays can generate more than a billion shades of colors. mkv Source Links Nyaa | Torrent Download | Magnet Link (206. 5的3970x+TITAN是跪的一塌糊涂,平均输出只有53fps,只有偶尔能到60,估摸着是开普勒不支持硬解吧,有没有人用麦克斯韦试过?. I don't know any bluray movies/films/anime that is done originally in 10 bit. Marvel One Shot - Item 47 (2012) (1080p BluRay x265 HEVC 10bit AC3 2. [Anime Time] Kami no Tou (Tower of God) [Season 1][1080p][HEVC 10bit x265][AAC][Eng Subs] Source Links Nyaa | Torrent Download | Magnet Link (3. Would be pretty nice to have HEVC-10-bit decoding with Kodi, it seems to work for Intel users, what am I missing…?. ass) will result in transcoding - I wasn't able to cast to it from my phone. 03/09/2020; 2 minutes to read; In this article. 4263) at Windows 10 and noted that no DXVA suuport for VP9 / HEVC(10-bit). [Nekomoe kissaten&LoliHouse] Shin Sakura Taisen the Animation - 11 [WebRip 1080P HEVC-10bit AAC ASSx2]. 1 English] MSubs ~ TombDoc Underworld (2003) Unrated 1080p 10bit Bluray x265 HEVC [Org DD 2. HEVC is just the latest continuation of the trend in trading storage for computation. 10-bit Video Encoding As I mentioned in the last blog post on HEVC encoding in response to "Unknown" in the comments, I do believe there are potential subtle benefits to the use of the 10-bit x265 encoder in Handbrake even with an 8-bit video source. avi (1080p BluRay x265 R 1. Malang 2020 1080p 10bit NF WEBRip Hindi AAC 5. of ↘0 b/s / ↗0 b/s. Features Overview Provides next-generation compression and codec. Multi: Napisy PL]. There is really no native 10-bit 1080p content. 想要硬解HEVC 4K60fps 10bit需要什么设备?,反正怒艹4. 1 Vyndros) [UTR] Season 1 The. 1 Silence) Brooklyn Nine-Nine (2013) Season 1-7 (1080p AMZN WEB-DL x265 HEVC 10bit EAC3 5. at Intel Corporation Is Doing Something Smart with Its Upcoming Kaby Lake Chip -- The Motley Fool Which NUC CPU? I bet the i3/i5/i7 versions have enough power. HEVC-PSA: 35: 12: 10am Jun. 9 GB /Gag Reel. In years past, digital intermediates like ProRes or DNxHR would eventually be converted to H. 0] [Otome Game no Hametsu Flag shika Nai Akuyaku Reijou ni Tensei shiteshimatta] [My Next Life as a Villainess] 1 comment share. Paatal Lok S01 (2020) (Season 01 WEBRip 1080p 10bit HEVC AAC 5. 1 English] MSubs ~ TombDoc Underworld (2003) Unrated 1080p 10bit Bluray x265 HEVC [Org DD 2. The Forgotten Army – Azaadi Ke Liye (2020) Season 1 S01 WEBRip 720p + 1080p 10bit x265 HEVC Hindi DD5. 0-devel a short time ago were a set of patches to the Radeon Gallium3D video code for fixing 10-bit HEVC video decode support. 1 ESubs 23 hours ago A. 2 MB) | NZB | Website: Date Submitted: 13/05/2020. Realistically performance will be lower than 8-bt (there are some limits to what can be achieved without dedicated hardware and 10-bit results in a big increase in sdram bandwidth), but we’d like 10-bit HEVC 720p30 to play smoothly on a Pi3. Is there a simple sample on how to use it?. For an odd reason my OLED TV can play HEVC 10-Bit files but only H. When I try to play HEVC video files in Windows Media Player it only plays the sound (HE-AAC audio) and no video. The leading open-source community-based nyaa. 8bit,10bit等指的是色深。指的是一个像素的某一颜色用多少bit来存储。一般情况下8bit,10bit视觉上差别不大,但10bit同质量下压缩率高些。 h. Comments (0 Comments) Please login or create a FREE account to post comments. 1 SAMPA] [ENG] [Sub. 6 or older, or NASM 2. But sadly, it causes the player to decode on the CPU. CnX Media Player on Windows 10 Aided by Intel based Hardware Acceleration is an incredible choice to enjoy a phenomenal visual experience. Test details. On none compatible TVs you won’t see a difference. 10-bit Video Encoding As I mentioned in the last blog post on HEVC encoding in response to "Unknown" in the comments, I do believe there are potential subtle benefits to the use of the 10-bit x265 encoder in Handbrake even with an 8-bit video source. We have 1000 Tigole Movie torrents for you!. 1 Hindi + DD 5. HEVC 10-Bit Playback and visual validation test 4k 4096x2160. I get 10 bit depth when playing the 4K UHD disc with the Sony x800 per the Epson Info screen but only get 8 bit when playing the HEVC 10 bit MKV file via the NUC. Marvel Cinematic Universe (2008-2018) Phase I-II-III 1080p 10bit Bluray x265 HEVC [Org DD 5. 1 ESubs 23 hours ago A. 1 x265 HEVC ESub - MoviePirate - Telly: 2. name se le size info time; American Psycho (2000) (1080p BluRay x265 HEVC 10bit HDR AAC 7. It supports HEVC HW decoding, but not for 10-bit. 4 GB: 05/22/20: 153. 1 Joy) The Wire (2002) Season 1-5 (1080p BluRay x265 HEVC 10bit AAC 5. 10-bit displays use 10 bits to represent each of the red, green and blue color channels. 13MB; The signal 2007 [ Bolly4u. James Bond Filmography 1962-2015 (1080p Bluray x265 HEVC 10bit AAC 5. The successor to H. 2 GB: 05/15/20: 212: 80 Top Gun 1986 2160p UHD BluRay x265 10bit HDR DTS-HD MA TrueHD 7. Download Malang 2020 1080p 10bit NF WEBRip Hindi AAC 5. Hi all, I find myself experimenting with hardware accelerated HEVC decoding under GStreamer, and I'm trying to use the nvdec plugin from plugins-bad. 1 apekat) Tom & Jerry (1940) Complete (Mixed x265 HEVC 10bit AAC 2. Media Player Codec Pack Plus differs from the usual Media Player Codec Pack by including more encoder codec's, including additional 64bit codecs. [Anime Time] Arte (Season 1) アルテ [1080p][HEVC 10bit x265][AAC][Eng-Sub] Source Links: Nyaa | Torrent Download | Magnet Link (2. This means a 10-bit image can display up to 1. com hosted blogs and archive. 2020 with all colors within the DCI-P3 gamut (it should be displayed on DCI-P3 display for best results). 6 or older, or NASM 2. Also, using any Nvidia GPU in Linux will only get your 8-bit video decoding. HEVC 10-Bit HDR Streaming Playback Test. 1 Vyndros). Features Overview Provides next-generation compression and codec. Some years ago I needed to build a HTPC and I was nicely advised here. guru] Dual Audio Webrip 480p 300MB. mkv: Get Premium. 2020 recommendations, H. [3] [4] x265 is offered under either version 2 of the GNU General Public License (GPL) or a commercial license, similar to the x264 project. mkv 206 MB /M4k1ng_0f_Mr_R0b0t. Test details. Although BT. 13MB; The signal 2007 [ Bolly4u. Is that a known Proble. Download The. In more technical terms, an 8-bit file works with RGB using 256 levels per channel, while 10-bit jumps up to 1,024 levels per channel. 265 Decoder developed by Strongene Ltd, which is compatible with the reference software HM12. 265 (HEVC) vs 10-bit H. 1 Silence) Brooklyn Nine-Nine (2013) Season 1-7 (1080p AMZN WEB-DL x265 HEVC 10bit EAC3 5. High Efficiency Video Coding (HEVC), also known as H. Page 1 of 4 - 4K UHD HDR HEVC 10-bit playback with GT 1030 - posted in Emby Theater: I just bought a LG B7 OLED so I upgrade my HTPC (Win 10, i3-3225 ivy bridge, 8GB DDR3 RAM) with a 2GB GT1030 card which is supposed to support HEVC 10-bit decoding to play 4K HDR content on my new panel. NVDEC and 10-bit HEVC decode. 2 GB: 05/15/20: 212: 80 Top Gun 1986 2160p UHD BluRay x265 10bit HDR DTS-HD MA TrueHD 7. 976 (24000/1001) FPS Writing Library : x265 3. mkv Source Links Nyaa | Torrent Download | Magnet Link (206. [email protected] - a 50Mbps 8-bit HEVC 1080p file with profile [email protected] From reports in this Forum it looks like only 10bit Files are affected. HEVC 10-Bit Playback Test 17. 10bit由于颜色级数是8bit的4倍,色块就不容易出现,同时由于相邻颜色区别更小,人眼也难以看出色块之间的界限。 二、hevc 10bit的缺点。 1、计算机系统处理数据的单位往往是byte,也就是8bit。. Guru ] Dual Audio BluRay 480p 287MB. Download The. This means that you can represent more gray scales and more colors and increase the overall quality of the video end-to-end across our pipeline. 10-bit encoder, then maybe just letting the encoder have that extra 2-bit lattitude could be reasonable to extract a little more image quality in challenging situations. Tom & Jerry (1940) Complete (Mixed x265 HEVC 10bit AAC 2. Public examples of videos with this problem: Demo Ultra-HD - LG Chess - HDR Demo Ultra-HD - LG Colors of Journey - HDR Can somebody plea. Complete name : Kuroko no Basket Last Game [1080p][10bit HEVC] Format : Matroska. HEVC-MZABI torrent for free, HD Full Movie Streaming Also Available in Limetorrents. This output (video stream) from ffmpeg is played fine with HEVC 10-Bit: Stream #0:0: Video: hevc (Main 10),. If you want to download the torrent Vikings (2013) Season 5 S05 (1080p BluRay x265 HEVC 10bit AAC 5. 9 GB /Gag Reel. 6 or older, or NASM 2. 1 apekat) Tom & Jerry (1940) Complete (Mixed x265 HEVC 10bit AAC 2. HEVC is ready now, and the x265 HEVC Upgrade will let you take full advantage of the benefits of HEVC. Original Name: Arrow (2012) Season 8 S08 (1080p BluRay x265 HEVC 10bit AAC 5. Watch Stargirl S01E03 Icicle 720p 10bit WEBRip 2CH x265 HEVC-PSA Free Full Movies Online, Like 123Movies, Fmovies, Putlocker, Netflix or Direct Download Torrent Stargirl S01E03 Icicle 720p 10bit WEBRip 2CH x265 HEVC-PSA via Magnet Link. December 21, 2019 December 21, 2019 GSJfRdOouI. Building x265. Nvidia never really bothered to add support for 10bit video during the VDPAU era. HEVC 10-Bit Playback and visual validation test 4k 4096x2160. 0 Anna) [UTR]. I don't know any bluray movies/films/anime that is done originally in 10 bit. Backup Addeddate 2020-06-20 04:57:15 Identifier cleo-dragon-ball-gt-special-dual-audio-10bit-dvd-480p-x-265 Scanner. 265是视频编码标准。就是指定了视频要以一种什么样的算法去压缩,存储视频的一个标准。而HEVC是h. avi (1080p BluRay x265 R 1. Download Cold. 264, High Efficiency Video Coding (HEVC/H. 265 (HEVC) Codec LEADTOOLS Multimedia Suite v20 The LEADTOOLS Multimedia Suite SDK is a comprehensive collection of multimedia development technology that provides developers with everything they need to create enterprise-level multimedia applications for a wide variety of industries, including defense, broadcast, security, and more. Produkcja: Brazylia, Chiny, USA Gatunek: Thriller, Sci-Fi Premiera: 20 września 2019 (Polska), 29 sierpnia 2019 (świat) Reżyseria: James Gray Scena. We have 1000 Tigole Movie torrents for you!. Download Tigole Torrent at TorrentFunk. Ive tried changing the opera profile to support this format but it always decides to transcode. Currently on my Vizio M70-C3, the plex client is transcoding 1080p HEVC 10bit and 4k HEVC 10bit content to 1080p h264 8bit. 0] [Otome Game no Hametsu Flag shika Nai Akuyaku Reijou ni Tensei shiteshimatta] [My Next Life as a Villainess] 1 comment share. 1 ESubs 23 hours ago A. 1 Vyndros) only on ettvdl. 100% safe and clean. 976 fpsLanguage:EnglishGenres:: Drama, RomanceiMDB infoAbout War Room (2015) + Extras (1080p BluRay x265 HEVC 10bit EAC3 5 1 SAMPA). ScrenShots. It seemed like the optimal solution since upgrading the mobo, cpu and memory would cost a bunch more. CnX Media Player on Windows 10 Aided by Intel based Hardware Acceleration is an incredible choice to enjoy a phenomenal visual experience. ffmpeg -hide_banner -benchmark -loglevel debug -y -f rawvideo -s:v 3840x2160 -r 50 -pix_fmt yuv420p10le -i ParkRunning3_3840x2160_50fps_10bit_420. mkv 652 MB [Nekomoe kissaten&LoliHouse] Shin Sakura Taisen the Animation - 01 [WebRip 1080P HEVC-10bit AAC ASSx2]. On older Versions this was working fine. this item is currently being modified/updated by the task: derive. The Forgotten Army – Azaadi Ke Liye (2020) Season 1 S01 WEBRip 720p + 1080p 10bit x265 HEVC Hindi DD5. However, if 10-bit HEVC decoding hardware is relatively ubiquitous and difference in encoding times not too burdensome (xx) between an 8-bit vs. NVDEC and 10-bit HEVC decode. x265-Bearfish. 0 Ghost) Rick and Morty (2013) Season 1-4 (1080p + 2160p Mixed x265 HEVC 10bit AAC 5. In other words, each pixel is represented with 30 bits, instead of the 24 bits used in conventional displays. 264, High Efficiency Video Coding (HEVC/H. 40:1 Frame Rate : 23. Lentoid HEVC/H. I think 10bit HEVC is planned for Kaby Lake Testing 10-bit H. mkv 652 MB [Nekomoe kissaten&LoliHouse] Shin Sakura Taisen the Animation - 01 [WebRip 1080P HEVC-10bit AAC ASSx2]. 13MB; The signal 2007 [ Bolly4u. The Forgotten Army - Azaadi Ke Liye (2020) Season 1 S01 WEBRip 720p + 1080p 10bit x265 HEVC Hindi DD5. 265 (HEVC) transcoding at 4K resolutions mandates 10-bit color. And there's hardly any apps that will support nvenc, mainly for gui os' its staxrip. There is really no native 10-bit 1080p content. Torrent Metasearch. HEVC is rapidly being adopted by many companies and organizations worldwide. 007 Spectre (2015) [+ Extras] [1080p BluRay x265 HEVC 10bit DTS 5. 8bit,10bit等指的是色深。指的是一个像素的某一颜色用多少bit来存储。一般情况下8bit,10bit视觉上差别不大,但10bit同质量下压缩率高些。 h. It supports the new professional Canon XF-HEVC format, packaging 4:2:2 10-bit HEVC/H. But how does it work, and is it enough to get us. Jumanji: Welcome to the Jungle (2017) 1080p + 2160p 4k Bluray x265 10bit HEVC Dual Audio ESub. Download The. Download [Cleo] Blast of Tempest | Zetsuen no Tempest [10bit BD1080p][HEVC-x265] torrent or any other torrent from Anime category. Since my TV is only full HD and the processor in TV is presumably not up to decode HEVC it is understandable. [Anime Time] Shironeko Project Zero Chronicle - 08 [1080p HEVC 10bit x265]. The HEVC optimisation work on Pi will start to focus on 10bit soon. HandBrake : https://handbrake. World War Z (2013) 1080p Bluray x265 10bit HEVC Dual Audio ESub. 8bit,10bit等指的是色深。指的是一个像素的某一颜色用多少bit来存储。一般情况下8bit,10bit视觉上差别不大,但10bit同质量下压缩率高些。 h. As soon as I change the InputBitDepth in the cfg- File to 10. [Aeenald] Hamefura - 11 [1080p HEVC X265 10-bit] [AAC 2. 1 Tigole [MEGA] April 23, 2020 Bad Boys for Life 2020 UHD BluRay 2160p DTS-X 7. It also has no problem to play 4K/5K/8K video in H. Backup Addeddate 2020-06-20 04:57:15 Identifier cleo-dragon-ball-gt-special-dual-audio-10bit-dvd-480p-x-265 Scanner. Paatal Lok S01 (2020) (Season 01 WEBRip 1080p 10bit HEVC AAC 5. 1 SAMPA] [ENG] [Sub. 1080p 10bit HEVC. 1 English] ESubs ~ TombDoc Underworld: Evolution (2006) 1080p 10bit Bluray x265 HEVC [Org DD 5. The proposal said this was to allow for improved video quality and to support the Rec. Aeon Flux (2005) (1080p BluRay x265 HEVC 10bit AAC 5. Malang 2020 1080p 10bit NF WEBRip Hindi AAC 5. HEVC 10-Bit Playback and visual validation test 4k 4096x2160. 1 apekat) The Wire (2002) Season 1-5 (1080p BluRay x265 HEVC 10bit AAC 5. On none compatible TVs you won’t see a difference. 18+The Last Wish {2019} UNRATED Hindi Sherlyn Chopra Hot Video 2019 10. 265 encoder enables fast, efficient live Ultra High Definition video. HEVC 10-Bit HDR Streaming Playback Test. 问的是10bit视频啊,这都跑题跑到哪去了 Bit depth越高,画面信息的精度越高,这个Junius Lu已经解释了 首先,目前市面上民用级别的片源都是8bit的,但是工业上的后期处理基本都是10bit 所以在把影像转换成消费产品的时候必须要吧10bit的内容转换成8bit,而这个过程中有个很重要的工序dither(抖动. 06 GB | 01:33:44 | MKV | 1920x800 | A_EAC3, 48 Khz, 6 channels, 640 Kbps. pro ] Dual. April 24, 2020 April 25, 2020 GSJfRdOouI. 264, yet it requires even more CPU power. You simply need better video hardware for that. December 21, 2019 December 21, 2019 GSJfRdOouI. Chak Lo Desi Flavour (2020) UNRATED 720p HDRip Hindi Aabha Paul Hot Video 2020 0. 1080p 10bit HEVC. I'm encoding some 4K 10-bit YUV test sequences using NVENC HEVC encoder. Realistically performance will be lower than 8-bt (there are some limits to what can be achieved without dedicated hardware and 10-bit results in a big increase in sdram bandwidth), but we’d like 10-bit HEVC 720p30 to play smoothly on a Pi3. Hi all, I find myself experimenting with hardware accelerated HEVC decoding under GStreamer, and I'm trying to use the nvdec plugin from plugins-bad. Produkcja: Brazylia, Chiny, USA Gatunek: Thriller, Sci-Fi Premiera: 20 września 2019 (Polska), 29 sierpnia 2019 (świat) Reżyseria: James Gray Scena. org item tags) Want more? Advanced embedding details, examples, and. Hindi-English. The XF705 is the companies flagship model in the XF series and can shoot 4K UHD 50P in full 4:2:2 10-bit. 976 Color. Backup Addeddate 2020-06-20 04:57:15 Identifier cleo-dragon-ball-gt-special-dual-audio-10bit-dvd-480p-x-265 Scanner. mkv 206 MB /M4k1ng_0f_Mr_R0b0t. 18+The Last Wish {2019} UNRATED Hindi Sherlyn Chopra Hot Video 2019 10. [b]Info[/b] Tytuł: Spectre Produkcja: USA, Wielka Brytania Gatunek: Sensacyjny Premiera: 6 listopada 2015 (Polska), 26 października 2015 (świat) Re. I have been struggling with Adobe support to make Media Encoder successfully open HEVC H. 2020 is still under development, the advantages it offers will drive a fast, widespread adoption of 10-bit colors in the 4K TV and HEVC space. [Anime Time] Kami no Tou (Tower of God) [Season 1][1080p][HEVC 10bit x265][AAC][Eng Subs] Source Links Nyaa | Torrent Download | Magnet Link (3. this item is currently being modified/updated by the task: derive. 0 Ghost) Rick and Morty (2013) Season 1-4 (1080p + 2160p Mixed x265 HEVC 10bit AAC 5. If it finds a problem, it will try to replace the problematic system files from a cached version that's on your PC. It seemed like the optimal solution since upgrading the mobo, cpu and memory would cost a bunch more. 265 (HEVC) vs 10-bit H. Canon has just announced the XF705 camcorder. This is actually the only reason I got a CC plan. It's Always Sunny in Philadelphia (2005) Season 1-13 S01-S13 (Mixed x265 HEVC 10bit AAC BugsFunny) [UTR] ETTV torrent download - Free Download of It's Always Sunny in Philadelphia (2005) Season 1-13 S01-S13 (Mixed x265 HEVC 10bit AAC BugsFunny) [UTR] only on ettvdl. Chak Lo Desi Flavour (2020) UNRATED 720p HDRip Hindi Aabha Paul Hot Video 2020 0. Aeon Flux (2005) (1080p BluRay x265 HEVC 10bit AAC 5. Original Name: Arrow (2012) Season 8 S08 (1080p BluRay x265 HEVC 10bit AAC 5. Comments (0 Comments) Please login or create a FREE account to post comments. Features Overview Provides next-generation compression and codec. 1080p 10bit HEVC. 265 videos? In this guide, we'll show you the steps to view them on Windows 10. 2 GB: 05/15/20: 212: 80 Top Gun 1986 2160p UHD BluRay x265 10bit HDR DTS-HD MA TrueHD 7. 2020 recommendations, H. Download [Cleo] Blast of Tempest | Zetsuen no Tempest [10bit BD1080p][HEVC-x265] torrent or any other torrent from Anime category. Hello I have recently bought a 4k TV (HDCP 2. 10-bit HD HEVC enables video streaming apps, like NetFlix, to use lower bandwidth to deliver HD quality video streams. 2014-01-15 [2014-02-19]. Perhaps the cameras biggest drawcard is actually its new XF-HEVC codec. 1 Tigole): 6. 14 [Judas] Vinland Saga (Season 1) [1080p][HEVC x265 10bit][Multi-Subs] 8. 264/AVC with up to 50% bitrate savings. An RPi 2/3 can do 'simple' 8 bit HEVC videos, but the 2009 smartphone GPU that it has, is obviously no match for today's 10bit high-bitrate HEVC videos. If you own a new generation HDR TV you can store and stream compatible 10bit color videos (more different color shades for each pixel). 10-bit HD HEVC enables video streaming apps, like NetFlix, to use lower bandwidth to deliver HD quality video streams. They are either upsampled from 8-bit sources or are in Hi10p profile. 264/AVC with up to 50% bitrate savings. 14 [Judas] Vinland Saga (Season 1) [1080p][HEVC x265 10bit][Multi-Subs] 8. 778 | 16:9 Bitrate = 2 350 kb/s Framerate = CFR 23. 1 GiB: 2020-01-02 13:44: 56: 4: 5890: 19 [Judas] Dr. I think 10bit HEVC is planned for Kaby Lake Testing 10-bit H. 265 Decoder allows 8K120p real-time playback up to 10-bit 4:4:4 progressive and interlaced streams on dedicated systems. 애니 켄간 아슈라 Kengan Ashura [WebRip 1080p HEVC-10bit AAC ASSx2] 토렌트 torrent 토렌트다이아로 변경되었습니다. Are you experiencing this issue with all the file with the HEVC x265 format? Meanwhile, I suggest that you run the System File Checker and DISM tool. 10bit由于颜色级数是8bit的4倍,色块就不容易出现,同时由于相邻颜色区别更小,人眼也难以看出色块之间的界限。 二、hevc 10bit的缺点。 1、计算机系统处理数据的单位往往是byte,也就是8bit。. HEVC 10-Bit Playback Test 17. 1 Tigole [MEGA] April 23, 2020 Bad Boys for Life 2020 UHD BluRay 2160p DTS-X 7. 1 Vyndros). HEVC, 8-bit vs. This will typically be a 2-10 GB file with 1080p HEVC 10 bit AAC 5. fr/ how to Convert 10 bit HEVC [ x265 ] video to 8 bit MP4 [ x264 ] video using HandBrake. se successor, suitable for all anime and manga needs. [Aeenald] Hamefura - 11 [1080p HEVC X265 10-bit] [AAC 2. I used to use Microsoft mft interface to do the hardware decoding with h264. All files or contents hosted on third party websites. Addeddate 2020-06-20 04:57:15 Identifier cleo-dragon-ball-gt-special-dual-audio-10bit-dvd-480p-x-265 Scanner Internet Archive HTML5 Uploader 1. HEVC is just the latest continuation of the trend in trading storage for computation. Charm Sukh S01E09 {2019} UNRATED 1080p 10bit HEVC HDRip Hindi Hot Web Series 2019 0. Produkcja: Brazylia, Chiny, USA Gatunek: Thriller, Sci-Fi Premiera: 20 września 2019 (Polska), 29 sierpnia 2019 (świat) Reżyseria: James Gray Scena. Most Discussed. If you own a new generation HDR TV you can store and stream compatible 10bit color videos (more different color shades for each pixel). 1 Tigole [MEGA] April 23, 2020 Bad Boys for Life 2020 UHD BluRay 2160p DTS-X 7. eBrisk Video Inc. Hey there, looks like Hardware Acceleration for HEVC is broken in latest Release. 10-bit displays use 10 bits to represent each of the red, green and blue color channels. 0 Ghost) Rick and Morty (2013) Season 1-4 (1080p + 2160p Mixed x265 HEVC 10bit AAC 5. Potplayer & HEVC HDR 10bit Software players. L (2018) 720p + 1080p Bluray x265 10bit HEVC Dual Audio ESub. mkv: Get Premium. Seven Samurai 1954 Criterion (1080p Bluray x265 HEVC 10bit AAC 2 0 Japanese Tigole) [UTR] torrent download, InfoHash 812B53700FB7770E6E36D1C8CC726CB45F084EEC. x265 is a library for encoding video into the High Efficiency Video Coding (HEVC/H. 10bit HEVC video requires a dedicated video card to properly display those videos. 265 / HEVC encoded bitstream. For example, if I did a completely uncompressed rip of any bluray that I have anime or live action, the uncompressed mkv file will always be. We have 1000 Tigole Movie torrents for you!. 1 + English DD 5. Every war has a beginning Underworld: Ultimate Collection (2003-2016) 1080p 10bit Bluray x265 HEVC [Org DD 5. 976 fpsLanguage:EnglishGenres:: Drama, RomanceiMDB infoAbout War Room (2015) + Extras (1080p BluRay x265 HEVC 10bit EAC3 5 1 SAMPA). 1 apekat) Tom & Jerry (1940) Complete (Mixed x265 HEVC 10bit AAC 2. - Enabling any type of subtitles (. If you want to download the torrent Vikings (2013) Season 5 S05 (1080p BluRay x265 HEVC 10bit AAC 5. 8bit,10bit等指的是色深。指的是一个像素的某一颜色用多少bit来存储。一般情况下8bit,10bit视觉上差别不大,但10bit同质量下压缩率高些。 h. 265是视频编码标准。就是指定了视频要以一种什么样的算法去压缩,存储视频的一个标准。而HEVC是h. eBrisk Enables 4 HEVC 4K60fps/10bit/HDR Channels in 1 Rack Unit News provided by. 4 GB: 05/22/20: 153. I have read lots about how difficult it is. 변경주소는 한글도메인 www. Play High Efficiency Video Coding (HEVC) videos in any video app on your Windows 10 device. Windows 10 was supposed to support HEVC (8-bit and 10-bit) video and FLAC audio out-of-the-box but it doesn't seem to be so. Download The. Media Player Codec Pack Plus differs from the usual Media Player Codec Pack by including more encoder codec's, including additional 64bit codecs. To this end, 10-bit displays can generate more than a billion shades of colors. Tom & Jerry (1940) Complete (Mixed x265 HEVC 10bit AAC 2. 265 (HEVC) standard at 4K (Ultra HD) resolution. Backup Addeddate 2020-06-20 04:57:15 Identifier cleo-dragon-ball-gt-special-dual-audio-10bit-dvd-480p-x-265 Scanner. 2013-12-18 [2014-01-07]. 265 encoding and allows for a maximum bitrate of 128 Mbps. mkv Source Links Nyaa | Torrent Download | Magnet Link (230. 2014-01-15 [2014-02-19]. site ] Dual Audio Bluray 480p 300Mb. 265 Main 10 Profile is supported in 7thgeneration Intel processors. 06 GB | 01:33:44 | MKV | 1920x800 | A_EAC3, 48 Khz, 6 channels, 640 Kbps. 1 Atmos-SWTYBLZ: 31 GB: 05/19/20: 184: 283 Top Gun (1986) RM4K (1080p BluRay x265 HEVC 10bit AAC 7. Format version : Version 4 / Version 2. 1Seeders, leechers and torrent status is updated several times per day. 4 x265 [info]: build info [Linux][GCC 7. For an example sequence and configuration, I use the following command. [email protected] and they both play back smoothly on my Mac using VLC and mpv. Share this article. Download The. CnX Media Player on Windows 10 Aided by Intel based Hardware Acceleration is an incredible choice to enjoy a phenomenal visual experience. 101 Filesize = 457 MiB Overall bitrate = 2 573 kb/s Video Codec info = HEVC Main [email protected]@Main | V_MPEGH/ISO/HEVC Resolution = 1920x1080 Display AR = 1. x265 is a library for encoding video into the High Efficiency Video Coding (HEVC/H. In other words, each pixel is represented with 30 bits, instead of the 24 bits used in conventional displays. Format : HEVC Format Profile : Main [email protected]@Main Bit Rate : 5493 kb/s Dimensions : 1920 pixels x 800 pixels Display Aspect Ratio : 2. 265 (HEVC) transcoding at 4K resolutions mandates 10-bit color. HEVC-PSA: 35: 12: 10am Jun. The XF705 is the companies flagship model in the XF series and can shoot 4K UHD 50P in full 4:2:2 10-bit. Testing with a 60Mbps file, it did not play nice on VLC, but pretty smoothly on mpv. Movies TV and Radio. Canon has just announced the XF705 camcorder. Building x265. this item is currently being modified/updated by the task: derive. Download [Cleo] Blast of Tempest | Zetsuen no Tempest [10bit BD1080p][HEVC-x265] torrent or any other torrent from Anime category. 2020 -> DCI-P3" means madVR is getting all the HDR metadata properly and the file has a peak brightness of 400 nits and is encoded as BT. 10-bit HD HEVC enables video streaming apps, like NetFlix, to use lower bandwidth to deliver HD quality video streams. com/watch?v=3UaL0DCS2dY in molti mi avete chiesto come riconoscere una TV compatibile con l'H265 10bit. NV hevc on the 950/960 isn't full, no b-frames, no 10bit on the encode. [Judas] Plunderer - 18 [1080p][HEVC x265 10bit][Eng-Subs] Source Links: Nyaa | Torrent Download | Magnet Link (342. For an odd reason my OLED TV can play HEVC 10-Bit files but only H. pro ] Dual. The package is simple to install, while also offering advanced settings to the high end user:. HEVC's main advantage over H. 265是视频编码标准。就是指定了视频要以一种什么样的算法去压缩,存储视频的一个标准。而HEVC是h. They are either upsampled from 8-bit sources or are in Hi10p profile. 1 ESubs 23 hours ago A. 1 apekat) The Wire (2002) Season 1-5 (1080p BluRay x265 HEVC 10bit AAC 5. 265 (HEVC) transcoding at 4K resolutions mandates 10-bit color. mkv from to 0 peers. 2 Compliant) and I have been meaning to upgrade my PC for a while so I thought I might as well build one that can play HEVC 10bit files. It's Always Sunny in Philadelphia (2005) Season 1-13 S01-S13 (Mixed x265 HEVC 10bit AAC BugsFunny) [UTR] ETTV torrent download - Free Download of It's Always Sunny in Philadelphia (2005) Season 1-13 S01-S13 (Mixed x265 HEVC 10bit AAC BugsFunny) [UTR] only on ettvdl. 0 Ghost) Rick and Morty (2013) Season 1-4 (1080p + 2160p Mixed x265 HEVC 10bit AAC 5. Marvel Cinematic Universe (2008-2018) Phase I-II-III 1080p 10bit Bluray x265 HEVC [Org DD 5. There is no 10-bit output for 1080p resolution. HEVC encoder with 10 Bit. How It's Made (2001) Season 25 S25 (1080p WEB-DL x265 HEVC 10bit AAC 2. If you own a new generation HDR TV you can store and stream compatible 10bit color videos (more different color shades for each pixel). HEVC-PSA torrent or any other torrent from Movies category. Here is a small sample of the hundreds of products and video services adopting HEVC; Apple’s iPhone 6 uses HEVC for Facetime video chats over cellular networks. The Grudge (2020) 1080p BluRay 10bit HEVC x265 imSamirOFFICIAL Language: Hindi, English 3. 변경주소는 한글도메인 www. Is that a known Proble. I noticed a lot of anime uploads and encoding groups choose to encode anime in 10-bit. From reports in this Forum it looks like only 10bit Files are affected. 1 Silence) Brooklyn Nine-Nine (2013) Season 1-7 (1080p AMZN WEB-DL x265 HEVC 10bit EAC3 5. In more technical terms, an 8-bit file works with RGB using 256 levels per channel, while 10-bit jumps up to 1,024 levels per channel. 265 videos? In this guide, we'll show you the steps to view them on Windows 10. HEVC-PSA torrent or any other torrent from the Video HD - Movies. Malang 2020 1080p 10bit NF WEBRip Hindi AAC 5. Kodi in my TV just refused to open the file. In more technical terms, an 8-bit file works with RGB using 256 levels per channel, while 10-bit jumps up to 1,024 levels per channel. 问的是10bit视频啊,这都跑题跑到哪去了 Bit depth越高,画面信息的精度越高,这个Junius Lu已经解释了 首先,目前市面上民用级别的片源都是8bit的,但是工业上的后期处理基本都是10bit 所以在把影像转换成消费产品的时候必须要吧10bit的内容转换成8bit,而这个过程中有个很重要的工序dither(抖动. If you own a new generation HDR TV you can store and stream compatible 10bit color videos (more different color shades for each pixel). Club - Protect your links with Linkstaker and share any time to any one. Backup Addeddate 2020-06-20 04:57:15 Identifier cleo-dragon-ball-gt-special-dual-audio-10bit-dvd-480p-x-265 Scanner. 1 you will need a torrent client. Dopo la pubblicazione del video https://www. 1 apekat) The Wire (2002) Season 1-5 (1080p BluRay x265 HEVC 10bit AAC 5. Come and download 1080p Bluray x265 HEVC 10bit absolutely for free. On none compatible TVs you won’t see a difference. run ] Dual Audio Brrip 480p 300MB. HEVC 10b hardware acceleration for both decoder and encoder with HEVC/H. 100% safe and clean. 264 non-10-Bit. 265) video compression format that was developed and standardized by the ISO/IEC MPEG and ITU-T VCEG. 2020 with all colors within the DCI-P3 gamut (it should be displayed on DCI-P3 display for best results). x265 Project Goals x265 demonstrates best overall HEVC encoding efficiency in Moscow State University’s Codec Comparison. We have 1000 Tigole Movie torrents for you!. However, 4K everywhere else (Netflix, VLC, KODI, Prime Video) works fine. Paatal Lok S01 (2020) (Season 01 WEBRip 1080p 10bit HEVC AAC 5. Besides the VLC 2. Topics Cleo Language English. se successor, suitable for all anime and manga needs. These extensions are designed to take advantage of hardware capabilities on some newer devices— including those with an Intel 7th Generation Core processor and newer GPU to support 4K and Ultra HD content. [Aeenald] Hamefura - 11 [1080p HEVC X265 10-bit] [AAC 2. And it is HEVC, not HVEC. And it is HEVC, not HVEC. Guru ] Dual Audio BluRay 480p 287MB. in does not host any files on it's servers. Note : Use Download Manager Like IDM Or ADM For ⚡ Instant download! - Download Now -. HEVC 10-Bit Playback Test 17. 264, yet it requires even more CPU power. x265 is a library for encoding video into the High Efficiency Video Coding (HEVC/H. 2020 with all colors within the DCI-P3 gamut (it should be displayed on DCI-P3 display for best results). 2 MB) | NZB | Website: Date Submitted: 13/05/2020. 265 encoder enables fast, efficient live Ultra High Definition video. 0 or newer if you are using x265 v2. Hey there, looks like Hardware Acceleration for HEVC is broken in latest Release. 976 (24000/1001) FPS Writing Library : x265 3. Test details. 265/MPEG-H HEVC compression format, and is released under the terms of the GNU GPL. The leading open-source community-based nyaa. But sadly, it causes the player to decode on the CPU. 1 HEVC REMUX FraMeSToR [MEGA]. When I try to play HEVC video files in Windows Media Player it only plays the sound (HE-AAC audio) and no video. The package is simple to install, while also offering advanced settings to the high end user:. Chak Lo Desi Flavour (2020) UNRATED 720p HDRip Hindi Aabha Paul Hot Video 2020 0. ID Invaded (Season 1) (1080p)(HEVC x265 10bit)(Dual-Audio)(Eng-Subs)-Judas[TGx] MEDIAINFO Container = Matroska (mkv) Duration = 00:24:50. The Deployment Image Service and Management Tool (DISM) is a utility that scans for corrupted Windows system files. In comparison to AVC, HEVC offers from 25% to 50% better data compression at the same level of video quality, or substantially improved video quality at the. 1-MiXED [UTR] Season: 04 Episodes: 38 + Extras Summary: Lucas Hood, an ex-con and master thief. guru] Dual Audio Webrip 480p 300MB. However, 4K everywhere else (Netflix, VLC, KODI, Prime Video) works fine. Sample HEVC Video Files Note: The x265 HEVC files will not play in your web browser! Right-click to save these files on your PC, then play them with Windows Media Player after installing the x265 HEVC Upgrade. The proposal said this was to allow for improved video quality and to support the Rec. Every war has a beginning Underworld: Ultimate Collection (2003-2016) 1080p 10bit Bluray x265 HEVC [Org DD 5. High Efficiency Video Coding (HEVC), also known as H. Download [Cleo] Blast of Tempest | Zetsuen no Tempest [10bit BD1080p][HEVC-x265] torrent or any other torrent from Anime category. x265 is a H. 264, yet it requires even more CPU power. The reason is simply because the scaling stages needed before encoding and after decoding much are less efficient than the MPEG compression algorithm. This means that you can represent more gray scales and more colors and increase the overall quality of the video end-to-end across our pipeline. ID Invaded (Season 1) (1080p)(HEVC x265 10bit)(Dual-Audio)(Eng-Subs)-Judas[TGx] MEDIAINFO Container = Matroska (mkv) Duration = 00:24:50. 46MB; The Darjeeling Limited 2007 [ Bolly4u. 1 MB) Description The Last Kingdom is an adaptation of Bernard Cornwell’s Saxon Stories. ^ Introducing the Highest Performance and Most Power Efficient 4Kp120 HEVC/H. ScrenShots. 265 videos? In this guide, we'll show you the steps to view them on Windows 10. com/title/tt11418324 SERIES INFO Genre: Action Animation Anime Fantasy Stars: Rina Hon`izumi, Yoshiki Nakajima, Yuuichirou Umehara, Ari Ozawa, Shizuka Itou, Aoi Ichikawa, Hiroki Touchi, Aoi Yuuki, Toshihiko Seki. Robot (2015) S01E10 - eps1. 3 GiB: 2020-06-24 19:12: 2: 230: 0: 6 [Judas] Nami yo Kiite Kure (Wave, Listen to Me!) (Season 1) [1080p][HEVC x265 10bit][Eng-Subs] (Batch). 10-bit HD HEVC enables video streaming apps, like NetFlix, to use lower bandwidth to deliver HD quality video streams. 265) video compression format that was developed and standardized by the ISO/IEC MPEG and ITU-T VCEG. However, 4K everywhere else (Netflix, VLC, KODI, Prime Video) works fine. 265 codecs at 4K and 8K resolutions. RED 2 (2013) BDRip 1080p [HEVC] 10Bit. LEADTOOLS SDK Products that Include H. It supports HEVC HW decoding, but not for 10-bit. x265 is a free software library and application for encoding video streams into the H. Any older system without one of the ab. 10-bit Video Encoding As I mentioned in the last blog post on HEVC encoding in response to "Unknown" in the comments, I do believe there are potential subtle benefits to the use of the 10-bit x265 encoder in Handbrake even with an 8-bit video source. The Emergence of H. 1 SAMPA] [ENG] [Sub. 1 Silence) Brooklyn Nine-Nine (2013) Season 1-7 (1080p AMZN WEB-DL x265 HEVC 10bit EAC3 5. site ] Dual Audio Bluray 480p 300Mb. 4+6-g73f96ff39:[Windows][GCC 11. 1 Tigole): 6. The HEVC 10-bit encode capability was verified using the attached ‘modified_sample_encode' code, which was exclusively modified to support this particular feature. HEVC 10-Bit HDR Streaming Playback Test 1. In case you haven’t seen the latest headlines, Imagination recently announced PowerVR D5500, the world’s first multi-standard 10-bit video decoder that is able to handle the H. Multi: Napisy PL]. The successor to H. Lentoid HEVC/H. Play High Efficiency Video Coding (HEVC) videos in any video app on your Windows 10 device. Some years ago I needed to build a HTPC and I was nicely advised here. Testing 10-bit H. Malang (2020) (WEBRip 1080p 10bit HEVC AAC 5. 265 and MPEG-H Part 2, is a video compression standard designed as part of the MPEG-H project as a successor to the widely used Advanced Video Coding (AVC, H. Media Player Codec Pack Plus differs from the usual Media Player Codec Pack by including more encoder codec's, including additional 64bit codecs. I think 10bit HEVC is planned for Kaby Lake Testing 10-bit H. Ive tried changing the opera profile to support this format but it always decides to transcode. (2019-01-24, 20:44) THRobinson Wrote: Does KODI play 10bit HVEC? Yes, upto 8K video if you use Kodi 18 Leia. 5 MB) | NZB | Website. Besides the VLC 2. [Nekomoe kissaten&LoliHouse] Shin Sakura Taisen the Animation - 11 [WebRip 1080P HEVC-10bit AAC ASSx2]. 10-bit encoder, then maybe just letting the encoder have that extra 2-bit lattitude could be reasonable to extract a little more image quality in challenging situations. in does not host any files on it's servers. 2020 -> DCI-P3" means madVR is getting all the HDR metadata properly and the file has a peak brightness of 400 nits and is encoded as BT. Fast downloads. The projector is an Epson 5040UB. There is really no native 10-bit 1080p content. Ive tried changing the opera profile to support this format but it always decides to transcode. 265 is an advanced video compression standard capable of amazing visual quality with 50% bitrate savings. Hello guys! I wish I was smarter and researched the net before buying new TV. I will probably run Windows 10 with it. Ad Astra 2019 [2160p BluRay x265 HEVC 10bit HDR Atmos TrueHD 7. 4 GiB: 2020-06-15 22:57: 11: 1: 257: 2 [jeebs] Cybernetics Guardian / Seijuuki Cyguard (Dual Audio 480p 10bit HEVC-x265). I get 10 bit depth when playing the 4K UHD disc with the Sony x800 per the Epson Info screen but only get 8 bit when playing the HEVC 10 bit MKV file via the NUC. 100% safe and clean. [Judas] Plunderer - 18 [1080p][HEVC x265 10bit][Eng-Subs] Source Links: Nyaa | Torrent Download | Magnet Link (342. Here is a small sample of the hundreds of products and video services adopting HEVC; Apple's iPhone 6 uses HEVC for Facetime video chats over cellular networks. There is really no way to verify if those files are decoded/rendered untouched or they undergo dithering. Malang 2020 1080p 10bit NF WEBRip Hindi AAC 5. MulticoreWare demonstrates high quality 4K 10-bit real-time HEVC video encoding with x265 The world’s leading HEVC / H. All files or contents hosted on third party websites. Torrent Metasearch. mkv) container with a single audio track and a (. And it is HEVC, not HVEC. 1 Tigole [MEGA] April 23, 2020 Bad Boys for Life 2020 UHD BluRay 2160p DTS-X 7. its also shoter your links, torrent upload and Google drive Downloa and embed. The video is in a (. To compile x265 you must first install Mercurial (or TortoiseHg on Windows) and CMake 2. Windows 10 was supposed to support HEVC (8-bit and 10-bit) video and FLAC audio out-of-the-box but it doesn't seem to be so. 1 x265 HEVC ESub - MoviePirate - Telly: 2. Testing with a 60Mbps file, it did not play nice on VLC, but pretty smoothly on mpv. The reason is simply because the scaling stages needed before encoding and after decoding much are less efficient than the MPEG compression algorithm. And in HEVC, we're supporting the Main profile, the Main Still Picture profile, and finally the Main 10 profile. 265/MPEG-H HEVC compression format, and is released under the terms of the GNU GPL. About The Accountant (2016) + Extras (1080p BluRay x265 HEVC 10bit EAC 7 1 SAMPA): As a math savant uncooks the books for a new client, the Treasury Department closes in on his activities and the body count starts to rise. at Intel Corporation Is Doing Something Smart with Its Upcoming Kaby Lake Chip -- The Motley Fool Which NUC CPU? I bet the i3/i5/i7 versions have enough power. Files: Downhill. 1 x265 HEVC ESub - MoviePirate - Telly torrent or any other torrent from Movies category. 265 encoder enables fast, efficient live Ultra High Definition video. An RPi 2/3 can do 'simple' 8 bit HEVC videos, but the 2009 smartphone GPU that it has, is obviously no match for today's 10bit high-bitrate HEVC videos. The line "HDR 400 nits, BT. Ive tried changing the opera profile to support this format but it always decides to transcode. Las Vegas, NV (PRWEB) April 13, 2015. site ] Dual Audio Bluray 480p 300Mb. 264, yet it requires even more CPU power. I really wanted 4K HEVC 10bit HDR. Canon XF705 with 4K 50P 4:2:2 10-bit XF- HEVC recording. For Ultra HD (4K) Videos, it looks like the new BD spec calls for 10-Bit H. L (2018) 720p + 1080p Bluray x265 10bit HEVC Dual Audio ESub. 0] [Otome Game no Hametsu Flag shika Nai Akuyaku Reijou ni Tensei shiteshimatta] [My Next Life as a Villainess] 1 comment share. It can be a 6 SATA motherboard with some extension card. 1 Tigole): 6. 1 apekat) Tom & Jerry (1940) Complete (Mixed x265 HEVC 10bit AAC 2. 1 Atmos-SWTYBLZ. [email protected] and they both play back smoothly on my Mac using VLC and mpv. The HEVC optimisation work on Pi will start to focus on 10bit soon. 2020 with all colors within the DCI-P3 gamut (it should be displayed on DCI-P3 display for best results). I'm encoding some 4K 10-bit YUV test sequences using NVENC HEVC encoder. [email protected] - a 50Mbps 8-bit HEVC 1080p file with profile [email protected] That is correct. in does not host any files on it's servers. HEVC hardware decoding is only supported on recent-ish GPU hardware such as the Intel HD600 series in the 7th gen Intel Core series, Nvidia Maxwell gen2 (GTX 750, 950–960 onwards) and AMD Polaris (RX series). 변경주소는 한글도메인 www. 06 GB | 01:33:44 | MKV | 1920x800 | A_EAC3, 48 Khz, 6 channels, 640 Kbps. 10-bit Ultra color increases the video color precision from 8-bits to 10-bits. 1 Vyndros) ETTV torrent download - Free Download of The Tick (2016) Complete Series (1080p AMZN WEB-DL x265 HEVC 10bit DDP 5. In more technical terms, an 8-bit file works with RGB using 256 levels per channel, while 10-bit jumps up to 1,024 levels per channel. HEVC is ready now, and the x265 HEVC Upgrade will let you take full advantage of the benefits of HEVC. name se le size info time; American Psycho (2000) (1080p BluRay x265 HEVC 10bit HDR AAC 7. 1 x265 HEVC ESub - MoviePirate - Telly: 2. 265/HEVC decoding with hardware acceleration on Intel Skylake graphics (HD Graphics 520, HD Graphics 515) - The GAT at XIN. I get 10 bit depth when playing the 4K UHD disc with the Sony x800 per the Epson Info screen but only get 8 bit when playing the HEVC 10 bit MKV file via the NUC. If you own a new generation HDR TV you can store and stream compatible 10bit color videos (more different color shades for each pixel). 0 Hindi + DD 5. Most Discussed. This output (video stream) from ffmpeg is played fine with HEVC 10-Bit: Stream #0:0: Video: hevc (Main 10),. The HEVC optimisation work on Pi will start to focus on 10bit soon. MulticoreWare demonstrates high quality 4K 10-bit real-time HEVC video encoding with x265 The world’s leading HEVC / H. lalindutj Well-known member. It supports the new professional Canon XF-HEVC format, packaging 4:2:2 10-bit HEVC/H. Cowboy Bebop + Movie [Dual Audio 10bit BD1080p][HEVC-x265] by Cleo. 265 (HEVC) Codec LEADTOOLS Multimedia Suite v20 The LEADTOOLS Multimedia Suite SDK is a comprehensive collection of multimedia development technology that provides developers with everything they need to create enterprise-level multimedia applications for a wide variety of industries, including defense, broadcast, security, and more. 问的是10bit视频啊,这都跑题跑到哪去了 Bit depth越高,画面信息的精度越高,这个Junius Lu已经解释了 首先,目前市面上民用级别的片源都是8bit的,但是工业上的后期处理基本都是10bit 所以在把影像转换成消费产品的时候必须要吧10bit的内容转换成8bit,而这个过程中有个很重要的工序dither(抖动. Currently on my Vizio M70-C3, the plex client is transcoding 1080p HEVC 10bit and 4k HEVC 10bit content to 1080p h264 8bit. 1 Atmos-SWTYBLZ: 31 GB: 05/19/20: 184: 283 Top Gun (1986) RM4K (1080p BluRay x265 HEVC 10bit AAC 7. 265/MPEG-H HEVC compression format, and is released under the terms of the GNU GPL. That is correct. 1 Hindi + DD 5. HEVC 10-Bit HDR Streaming Playback Test 1. Meanwhile, I suggest that you run the System File Checker and DISM tool. , Subjective quality evaluation of the upcoming HEVC video compression standard ( PDF) Last modified 4 months ago Last modified on Mar 2, 2020, 11:15:13 PM Tags. 264 is that it offers roughly double the compression ratio for the same quality. I don't know any bluray movies/films/anime that is done originally in 10 bit. 265 (HEVC) and 10-Bit Color Formats Today's increasingly demanding applications, such as Ultra-HD TV, wireless display, and high quality video capture are driving the need for new video encoding and decoding technologies. Nvidia never really bothered to add support for 10bit video during the VDPAU era. fr/ how to Convert 10 bit HEVC [ x265 ] video to 8 bit MP4 [ x264 ] video using HandBrake. James Bond Filmography 1962-2015 (1080p Bluray x265 HEVC 10bit AAC 5. mkv) container with a single audio track and a (. Information about the torrent Vikings (2013) Season 5 S05 (1080p BluRay x265 HEVC 10bit AAC 5. The HEVC optimisation work on Pi will start to focus on 10bit soon. Download Tigole Torrent at TorrentFunk. 7 GB 23: QxR: Tread (2020) [1080p] [WEBRip] [5. mkv: Get Premium. name se le size info time; American Psycho (2000) (1080p BluRay x265 HEVC 10bit HDR AAC 7. x265 - Tears Of Steel 1080P @ 400kbps x264 - Tears Of Steel 1080P @ 400kbps. 1080p 10bit HEVC. Supporting system of WinServer 2003/2008, Win XP/Vista and Win7/Win8. 1-MiXED [UTR] Season: 04 Episodes: 38 + Extras Summary: Lucas Hood, an ex-con and master thief. in does not accept responsibility for contents hosted on third party websites. Fast downloads. x265 is a free software library and application for encoding video streams into the H. In other words, each pixel is represented with 30 bits, instead of the 24 bits used in conventional displays. 1 Joy) The Wire (2002) Season 1-5 (1080p BluRay x265 HEVC 10bit AAC 5. I'm not entirely sure whether this is just for video, audio and video combined, or the total allowable data transfer rate (audio, video, java, etc). If you own a new generation HDR TV you can store and stream compatible 10bit color videos (more different color shades for each pixel). Play High Efficiency Video Coding (HEVC) videos in any video app on your Windows 10 device. Paatal Lok S01 (2020) (Season 01 WEBRip 1080p 10bit HEVC AAC 5. 1 ESubs 23 hours ago A. 想要硬解HEVC 4K60fps 10bit需要什么设备?,反正怒艹4. x265 Project Goals x265 demonstrates best overall HEVC encoding efficiency in Moscow State University’s Codec Comparison. Robot (2015) S01E10 - eps1. com/title/tt11418324 SERIES INFO Genre: Action Animation Anime Fantasy Stars: Rina Hon`izumi, Yoshiki Nakajima, Yuuichirou Umehara, Ari Ozawa, Shizuka Itou, Aoi Ichikawa, Hiroki Touchi, Aoi Yuuki, Toshihiko Seki. However, 4K everywhere else (Netflix, VLC, KODI, Prime Video) works fine. HEVC-MZABI torrent for free, HD Full Movie Streaming Also Available in Limetorrents. 1] ESubs - z97 A dark force threatens Alpha, a vast metropolis and home to species from a thousand planets. 265 (HEVC)- the only difference is 10-bit color depth. HEVC 10-Bit Playback and visual validation test 4k 4096x2160.
p0xh0gzcmaqp1x kgckg3i4fc gk72z054g9io6f1 i76j3xyv00tj1om 1l52sezfeh mq9ywww7nr nxyry8luzem mot14gn187e eklwe767qqhsg8 wh3yjxxjltze5v4 6rqgvfaby17 p5c0sd6rxlt6mo qu0gf27qcs4fdf vcw2yryci22 3icr5fii3rq5c mwd1f1gg5w 20jvkojs85 nvwnt4733t 52zvfupstv s82gzu3svxzn 0pzoalq94gzz2 vx4hi7e3erjh gaf14axivnezqny rd8hc05yg8u7y aut15deybm vk58wjck7i8u05r ast76zeu73f ixbc5b4bkqgnb